Audio Konvertierung

Wenn du dir nicht sicher bist, in welchem der anderen Foren du die Frage stellen sollst, dann bist du hier im Forum für allgemeine Fragen sicher richtig.
Antworten
.papaya
User
Beiträge: 11
Registriert: Sonntag 27. August 2006, 18:41

Mittwoch 8. April 2009, 12:28

Hallo,

ich bin auf der Suche nach einer Loesung, um Audio Dateien ins mp3 format zu konvertieren. (ausgehend von .flv)
bisher bin ich auf audio-convert-mod gestoßen, allerdings funktioniert das nur auf linux. ich will, dass das ganze aber auf windows laeuft.
gstreamer hab ich auch schon entdeckt, aber damit komme ich gar nicht klar, in den docs steht auch, dass dies sehr unvollstaendig ist(fuer python).

kann mir da jemand weiterhelfen?
busfahrer
User
Beiträge: 111
Registriert: Donnerstag 9. Oktober 2008, 17:42

Mittwoch 8. April 2009, 12:59

Hallo

ich habs unter Ubuntu mit
http://docs.python.org/library/subproce ... subprocess und FFmpeg gemacht und FFmpeg denke ich gibt es auch für Win.

Gruß...busfahrer
Alles wird gut ;-)
Benutzeravatar
Rebecca
User
Beiträge: 1662
Registriert: Freitag 3. Februar 2006, 12:28
Wohnort: DN, Heimat: HB
Kontaktdaten:

Mittwoch 8. April 2009, 13:14

Jo, gibt es. Man braucht zusaetzlich noch libmp3lame, damit ffmpeg auch mp3 generieren kann.
Offizielles Python-Tutorial (Deutsche Version)

Urheberrecht, Datenschutz, Informationsfreiheit: Piratenpartei
Benutzeravatar
snafu
User
Beiträge: 5531
Registriert: Donnerstag 21. Februar 2008, 17:31
Wohnort: Gelsenkirchen

Mittwoch 8. April 2009, 13:37

Als Modul vielleicht Pymedia?
shcol (Repo | Doc | PyPi)
.papaya
User
Beiträge: 11
Registriert: Sonntag 27. August 2006, 18:41

Mittwoch 8. April 2009, 14:11

snafu hat geschrieben:Als Modul vielleicht Pymedia?
das hab ich auch shcon versucht, auf der website steht allerdings:

http://pymedia.org/tut/install_src.html

For instance you will not be able to play AAC and OGG files, nor encode MP3, OGG, AAC or any other codec supported as external library.
.papaya
User
Beiträge: 11
Registriert: Sonntag 27. August 2006, 18:41

Mittwoch 8. April 2009, 14:34

Seems stream 0 codec frame rate differs from container frame rate: 1000.00 (100
/1) -> 25.00 (25/1)
Input #0, flv, from 'a.flv':
Duration: 00:03:14.59, start: 0.000000, bitrate: 64 kb/s
Stream #0.0: Video: flv, yuv420p, 320x182, 25.00 tb(r)
Stream #0.1: Audio: mp3, 22050 Hz, mono, s16, 64 kb/s
Output #0, mp3, to 'b.mp3':
Stream #0.0: Audio: libmp3lame, 22050 Hz, mono, s16, 64 kb/s
Stream mapping:
Stream #0.1 -> #0.0
Press [q] to stop encoding
[libmp3lame @ 0x3eeec0]lame: output buffer too small (buffer index: 9404, free
ytes: 388)
Audio encoding failed
das encoding versagt an dieser stelle. weiß jemand woran das liegt? liegt das wie oben an der libmp3lame? ich weiß nicht was ich machen muss um die dazuzupacken ...

/edit: ok das is jetzt ziemlich komisch ... das programm sagt zwar, dass das encoding nicht ging, allerdings liegt die mp3 datei im ordner und ist auch abspielbar .. oO
.papaya
User
Beiträge: 11
Registriert: Sonntag 27. August 2006, 18:41

Donnerstag 9. April 2009, 16:27

Sorry fuer den triple post ... wollte nur noch sagen, dass alles toll geklappt hat mit ffmpeg :) danke fuer den tipp. falls jemandem noch was zu der fehlermeldung einfaellt waere das natuerlich super.
Antworten